#TITLE:One;
#SUBTITLE:Initiate;
#ARTIST:Epik High ft Jisun;
#TITLETRANSLIT:;
#SUBTITLETRANSLIT:;
#ARTISTTRANSLIT:;
#CREDIT:;
#BANNER:One-bn.jpg;
#BACKGROUND:;
#LYRICSPATH:;
#CDTITLE:cdtitle.png;
#MUSIC:sdom1286.ogg;
#OFFSET:-3.620;
#SAMPLESTART:99.980;
#SAMPLELENGTH:12.000;
#SELECTABLE:YES;
#DISPLAYBPM:135.000;
#BPMS:0.000=135.000,3.500=270.000,4.000=67.500,4.125=135.000,5.625=270.000,6.125=67.500,6.250=135.000,6.750=270.000,7.250=67.500,7.375=270.000,7.875=67.500,8.000=135.000,8.500=270.000,9.000=67.500,9.125=135.000,9.625=270.000,10.125=67.500,10.250=135.000,10.750=270.000,11.250=67.500,11.375=270.000,11.875=67.500,12.000=270.000,12.500=67.500,12.625=270.000,13.125=67.500,13.250=270.000,13.750=67.500,13.875=270.000,14.375=67.500,14.500=135.000,15.000=270.000,15.500=67.500,15.625=135.000,16.125=270.000,16.625=67.500,16.750=270.000,17.250=67.500,17.375=135.000,17.875=270.000,18.375=67.500,18.500=135.000,19.000=270.000,19.500=67.500,19.625=135.000,20.125=270.000,20.625=67.500,20.750=135.000,50.750=67.500,50.875=270.000,51.375=135.000,51.875=67.500,52.000=270.000,52.500=135.000,53.000=67.500,53.125=270.000,53.625=135.000,54.125=67.500,54.250=270.000,54.750=135.000,83.250=270.000,83.750=67.500,83.875=135.000,84.375=270.000,84.875=67.500,85.000=135.000,85.500=270.000,86.000=67.500,86.125=135.000,86.625=67.500,86.750=270.000,87.250=135.000,120.250=67.500,124.250=101.250,130.250=135.000,136.250=202.500,148.250=135.000,166.750=270.000,167.250=67.500,167.375=135.000,188.875=270.000,189.375=67.500,189.500=135.000,197.000=270.000,197.500=67.500,197.625=135.000,206.125=270.000,206.625=67.500,206.750=135.000,207.250=270.000,207.750=67.500,207.875=135.000,210.375=270.000,210.875=67.500,211.000=135.000,211.500=270.000,212.000=67.500,212.125=135.000,214.625=270.000,215.125=67.500,215.250=135.000,218.750=270.000,219.250=67.500,219.375=135.000,222.875=270.000,223.375=67.500,223.500=135.000,227.000=270.000,227.500=67.500,227.625=135.000,231.125=270.000,231.625=67.500,231.750=135.000,235.250=270.000,235.750=67.500,235.875=135.000,239.375=270.000,239.875=67.500,240.000=135.000,243.500=270.000,244.000=67.500,244.125=135.000,247.625=270.000,248.125=67.500,248.250=135.000,251.750=270.000,252.250=67.500,252.375=135.000,255.875=270.000,256.375=67.500,256.500=135.000,260.000=270.000,260.500=67.500,260.625=135.000,264.125=270.000,264.625=67.500,264.750=135.000,268.250=270.000,268.750=67.500,268.875=135.000,272.375=270.000,272.875=67.500,273.000=135.000,297.500=270.000,298.000=67.500,298.125=135.000,312.625=67.500,312.750=270.000,313.250=135.000,313.750=67.500,313.875=270.000,314.375=135.000,314.875=270.000,315.375=67.500,315.500=270.000,316.000=67.500,316.125=135.000,316.625=67.500,316.750=270.000,317.250=135.000,317.750=67.500,317.875=270.000,318.375=135.000,318.875=270.000,319.375=67.500,319.500=270.000,320.000=67.500,320.125=270.000,320.625=67.500,320.750=270.000,321.250=67.500,321.375=135.000,321.875=67.500,322.000=270.000,322.500=135.000,323.000=67.500,323.125=270.000,323.625=135.000,324.125=270.000,324.625=67.500,324.750=270.000,325.250=67.500,325.375=135.000,325.875=67.500,326.000=270.000,326.500=135.000,327.000=67.500,327.125=270.000,327.625=135.000,328.125=270.000,328.625=67.500,328.750=270.000,329.250=67.500,329.375=270.000,329.875=67.500,330.000=270.000,330.500=67.500,330.625=135.000,331.125=67.500,331.250=270.000,331.750=135.000,332.250=67.500,332.375=270.000,332.875=135.000,333.375=270.000,333.875=67.500,334.000=270.000,334.500=67.500,334.625=135.000,335.125=67.500,335.250=270.000,335.750=135.000,336.250=67.500,336.375=270.000,336.875=135.000,337.375=270.000,337.875=67.500,338.000=270.000,338.500=67.500,338.625=135.000,340.125=270.000,340.625=67.500,340.750=135.000,341.250=270.000,341.750=67.500,341.875=135.000,344.375=270.000,344.875=67.500,345.000=135.000,345.500=270.000,346.000=67.500,346.125=135.000,348.625=270.000,349.125=67.500,349.250=135.000,349.750=270.000,350.250=67.500,350.375=135.000,350.875=270.000,351.375=67.500,351.500=135.000,352.000=270.000,352.500=67.500,352.625=135.000,353.375=270.000,353.875=135.000;
#STOPS:;
#BGCHANGES:;
// cache tags:
#FIRSTBEAT:1.000;
#LASTBEAT:353.875;
#SONGFILENAME:Songs/Initiate/one/One - Epik High ft Jisun.sm;
#HASMUSIC:1;
#HASBANNER:1;
#MUSICLENGTH:158.924;
// end cache tags

//---------------dance-single - ----------------
#NOTES:
     dance-single:
     :
     Hard:
     9:
     0.999,1.000,1.000,0.069,1.000,691.000,250.000,11.000,0.000,122.000:
0000
0000
0100
0100
0100
0100
0100
0100
,
0000
0110
0000
0000
0000
0000
0000
0000
0000
1100
0000
0000
0000
0000
0000
0000
0000
0000
0001
0000
0000
0000
0000
0000
0000
0000
0000
0011
0000
0000
0000
0000
,
0011
0000
0000
0000
0000
0000
0000
0000
0000
0011
0000
0000
0000
0000
0000
0000
0000
0000
0011
0000
0000
0000
0000
0000
0000
0000
0000
0001
0000
0000
0000
0000
,
1010
0000
0000
0000
0000
0011
0000
0000
0000
0000
0101
0000
0000
0000
0000
1100
0000
0000
0000
0000
1000
0000
0000
0000
0000
0000
0000
0000
0000
0010
0000
0000
,
0000
0000
0000
0000
0000
0000
0110
0000
0000
0000
0000
1000
0000
0000
0000
0000
0000
0000
0000
0000
1100
0000
0000
0000
0000
0000
0000
0000
0000
1000
0000
0000
,
0000
0000
0000
1001
0000
0101
1001
0101
1001
0101
0000
1000
0000
0001
0000
0001
,
0000
0111
0000
0001
0000
0010
0000
0100
0000
1110
0000
1000
0000
1000
0000
1000
,
0000
1110
0000
0100
0000
0010
0000
0001
0000
0111
0000
0010
0000
0010
0000
0010
,
0000
0111
0000
0010
0000
0100
0000
1000
0000
1110
0000
0100
0000
0100
0000
0100
,
0000
1110
0000
0100
0000
0010
0000
0001
0000
0111
0000
0001
0000
0001
0000
0001
,
0000
0111
0000
0010
0000
0100
0000
1000
0000
1110
0000
1000
0000
1000
0000
1000
,
0000
1110
0000
0100
0000
0010
0000
0001
0000
0111
0000
0001
0000
0001
0000
0001
,
0000
0000
0111
0000
0000
0000
0010
0000
0000
0000
0100
0000
0000
0000
1000
0000
0000
0000
1110
0000
0000
0000
1000
0000
0000
0000
0000
1110
0000
0000
0000
0000
,
0000
0000
0000
0000
1110
0000
0000
0000
0000
0000
0000
0000
0000
1110
0000
0000
0000
0000
0000
0000
0000
0000
1110
0000
0000
0000
0000
0000
0010
0000
0001
0000
,
0000
0000
0000
1000
0100
0010
0001
1000
0100
1000
0100
0100
1000
1000
0100
0000
,
0000
0001
0010
1000
0000
0100
0000
0010
0001
0100
1000
0010
0100
0001
1000
0000
,
0000
0010
0100
0001
0001
0010
1000
0100
1000
0100
0010
0001
1000
1000
1000
0100
,
0100
0001
0100
1000
1000
0100
1000
1000
0100
1000
0001
0100
0100
1000
0000
0000
,
0000
0011
0000
0001
0000
0011
0000
0001
0000
0000
0000
1100
0000
1100
0000
0000
,
0000
1100
0000
1000
0000
1100
0000
1000
0000
0000
0000
0011
0000
0011
0000
0000
,
0000
0000
0010
0000
0001
0000
1100
0000
0001
0000
0010
0000
0001
0000
1100
0000
0001
0000
0010
0000
0001
0000
1100
0000
0001
0000
0010
0000
0000
0000
0000
1110
,
0000
0000
0000
0000
0000
0000
0000
0000
0111
0000
0000
0000
0000
0000
0000
0000
0000
1110
0000
0000
0000
0000
0000
0000
0000
0000
0111
0000
0000
0000
0001
0000
,
0000
0011
0000
0111
0000
1111
0000
1000
0000
0001
0000
0110
0000
1101
0000
0001
,
0000
1000
0000
0110
0000
0111
0000
0001
0000
1000
0000
0110
0000
0111
0000
1000
,
0000
0100
0000
0110
0000
1101
0000
1000
0000
0010
0000
0101
0000
1110
0000
0001
,
0000
1000
0000
1001
0000
1110
0000
0010
0000
1000
0000
0011
0000
0111
1000
0001
,
0100
0010
1000
1000
0001
1001
0000
0110
0000
1010
0000
1010
0000
1010
0000
0000
,
0000
0010
0100
0010
1000
1010
0000
0011
0000
1001
0000
1001
0000
1001
0000
0110
,
0000
1001
0010
0100
1000
0101
0010
0001
1000
0010
0100
0001
1000
0101
1000
0010
,
1000
0010
0001
0010
0001
0001
0010
0001
1000
0011
0000
1100
0000
0011
0000
0011
,
0000
0011
0000
0110
0010
0110
0000
1100
1100
0001
0001
0011
1000
0011
1100
1100
,
1100
0000
1001
0000
0000
0001
0000
0000
0001
0000
0000
0001
0000
0000
1101
0000
0000
0001
0000
0000
0001
0000
0000
0001
0000
0000
1101
0000
0000
0001
0000
0000
,
0001
0000
0000
0001
0000
0000
1101
0000
0000
0001
0000
0000
0001
0000
0000
0001
0000
0000
1111
0000
0000
0000
0001
0000
0000
0000
0011
0000
0000
0000
0001
0000
,
0000
1111
0000
0001
0000
0011
0000
0101
0000
1111
0000
0001
0000
0011
0000
0101
,
0000
1111
0000
0000
0001
0000
0000
0011
0000
0000
0011
0000
0000
1111
0000
0000
,
0011
0000
0000
0111
0000
0000
0101
0000
0000
1111
0000
0000
0101
0000
0000
1011
,
0000
0000
0101
0000
0000
2002
0000
0000
0000
0000
0000
0000
0000
0000
0000
0000
,
0000
3113
0000
0110
0000
0110
0000
0000
0000
1111
0000
0000
0000
0001
0000
0000
,
0000
0100
0000
1000
0000
1000
0000
0100
0000
0010
0000
0000
0000
0100
0000
0100
,
0000
0000
0000
2000
0000
0000
0000
3100
0001
0010
0001
0010
0001
1100
0001
0010
,
0001
0010
0001
0010
0001
1100
0001
1000
0001
1000
0001
1000
0001
0110
1000
0001
,
1000
0000
0111
0000
1000
0000
0001
0000
1000
0000
0111
0000
1000
0000
0100
0000
0010
0000
1110
0000
0000
0000
0000
0000
0000
0000
0000
1011
0000
0000
0000
0000
,
0000
0000
0000
1000
0000
0000
0000
1000
0000
0000
0000
1000
0000
0000
0000
1000
0000
0000
0000
1000
0000
0000
0000
0000
0000
0000
0000
1000
0000
0000
0000
1000
,
0000
0000
0000
0000
0000
0000
0000
2000
0000
0000
0000
0000
0000
0000
0000
3100
0000
0010
0000
0100
0000
0010
0000
0100
0000
0010
0000
1101
0000
0100
0000
0010
,
0000
0100
0000
0010
0000
0100
0000
0010
0000
0100
0000
1011
0000
0100
0000
0001
0000
0100
0000
0001
0000
0100
0000
0001
0000
0100
0000
1011
0000
0000
0000
1000
,
0000
0001
0000
1100
0000
0000
0000
1100
0000
0000
0000
1101
0000
1000
0000
1000
0000
1000
0000
1110
0000
0000
0000
0000
0000
0000
0000
0001
0000
0000
0000
0010
,
0000
0000
0000
0100
0000
0000
0000
1000
0000
0000
0000
1001
0000
0000
0000
0001
0000
0000
0000
1000
0000
0000
0000
0100
0000
0000
0000
0011
0000
0000
0000
0001
,
0000
0000
0000
1000
0000
0000
0000
0100
0000
0000
0000
0000
1111
0000
0000
0000
0000
0000
0000
0000
0100
0000
0000
0000
1000
0000
0000
0000
0101
0000
0000
0000
,
0100
0001
1000
0101
0010
0001
1000
0110
,
0100
0000
0000
0000
1000
0000
0000
0000
0001
0000
0000
0000
0000
1111
0000
0000
0000
0000
0000
0000
0000
0001
0000
0000
0000
1000
0000
0000
0000
0101
0000
0000
,
0000
0010
0000
0000
0000
0001
0000
0000
0000
0100
0000
0000
0000
1010
0000
0000
0000
0001
0000
0000
0000
0100
0000
0000
0000
1000
0000
0000
0000
0011
0000
0000
,
0000
0100
0000
0000
0000
0100
0000
0000
0000
0001
0000
0000
0000
0001
0000
0000
0000
0001
0000
0000
0000
0000
1111
0000
0000
0000
0000
0000
0000
0000
0000
1111
,
0000
0000
0000
0000
0000
0000
0000
0100
0000
0000
0000
0001
0000
0000
0000
1100
0000
0000
0000
0001
0000
0000
0000
0000
1111
0000
0000
0000
0000
0000
0000
0000
,
0000
1111
0000
0000
0000
0001
0000
0000
0000
0100
0000
0100
0000
0100
0000
0100
0000
0010
0000
0010
0000
0010
0000
0000
0000
0000
1111
0000
0000
0000
0000
0000
,
0000
0000
1001
0000
0000
0000
1001
0000
0000
0000
0000
0000
0000
0000
1001
0000
0000
0000
1001
0000
0000
0000
0000
0000
0000
0000
0000
1111
0000
0000
0000
0000
,
0000
0000
0000
0110
0000
0000
0000
0110
0000
0000
0000
0000
0000
0000
0000
0110
0000
0000
0000
0110
0000
0000
0000
0000
0000
0000
0000
0000
1111
0000
0000
0000
,
0000
0000
0000
0000
1010
0000
0000
0000
1010
0000
0000
0000
0000
0000
0000
0000
1010
0000
0000
0000
1010
0000
0000
0000
0000
0000
0000
0000
0000
1111
0000
0000
,
0000
0000
0000
0000
0000
0101
0000
0000
0000
0101
0000
0000
0000
0000
0000
0000
0000
0101
0000
0000
0000
0101
0000
0000
0000
0000
0000
0000
0000
0000
1111
0000
,
0000
0000
0000
0000
0000
0000
1100
0000
0000
0000
1100
0000
0000
0000
0000
0000
0000
0000
1100
0000
0000
0000
1100
0000
0000
0000
0000
0000
0000
0000
0000
1111
,
0000
0000
0000
0000
0000
0000
0000
0011
0000
0000
0000
0011
0000
0000
0000
0000
0000
0000
0000
0011
0000
0000
0000
0011
0000
0000
0000
0000
0000
0000
0000
0000
,
1111
0000
1001
0110
0000
0110
1001
0000
,
0000
1111
0000
0000
0000
0000
0000
0000
0000
0110
0000
0000
0000
1001
0000
0000
0000
0000
0000
0000
0000
1001
0000
0000
0000
0110
0000
0000
0000
0000
0000
0000
,
0000
1111
0000
0010
0000
0100
0000
1000
0000
0200
0000
0000
0000
1310
0000
0000
,
0000
0000
0000
1111
0000
0000
0000
1000
0000
0000
0000
0100
0000
0000
0000
0010
0000
0000
0000
0002
0000
0000
0000
0000
0000
0000
0000
0113
0000
0000
0000
0000
,
0000
1111
0001
0010
0100
1000
0100
1000
,
0000
0000
0000
0000
0000
1111
0000
0000
0000
0000
0000
0000
0000
1000
0000
0000
0000
0100
0000
0000
0000
2000
0000
0000
0000
0000
0000
0000
0000
3110
0000
0000
,
0000
0000
0000
1111
0000
0001
0000
1000
0000
0100
0000
0020
0000
0000
0000
0131
,
0000
0000
0000
0000
0000
0000
0000
1111
0000
0000
0000
1000
0000
0000
0000
0001
0000
0000
0000
1000
0000
0000
0000
0200
0000
0000
0000
0000
0000
0000
0000
1310
,
0000
0000
1111
0001
1000
0010
0100
0001
,
0010
0000
0001
0000
0010
0000
0010
0000
0010
0000
0010
0000
0010
0010
0010
0010
,
0010
0010
0010
0010
1111
0000
0000
0000
1001
0000
0000
0000
0100
0000
1000
0000
,
0100
0010
0001
0000
1000
0100
0000
0002
,
0000
0000
1003
0000
0010
0010
0001
1000
0100
0010
0100
0001
1000
0001
0100
1000
,
0100
0010
1000
0010
0100
0001
0100
1000
0001
0010
0001
1000
0111
0010
0100
0001
,
1110
0000
0010
0000
0100
0000
0001
0000
1110
0000
0000
0000
0000
0000
0000
0000
0000
1111
0000
0000
0000
0000
0000
0000
0000
1000
0000
0000
0000
0100
0000
0000
,
0000
0010
0000
0000
0000
0001
0000
0000
0000
0001
0000
0000
0000
0000
0000
0000
0000
0010
0000
0000
0000
0100
0000
0000
0000
0000
0000
0000
0000
2000
0000
0000
,
0000
0000
0000
0000
0000
3100
0000
0000
0000
0100
0000
0100
0000
1000
0000
0100
0000
0010
0000
1000
0000
0010
0000
0001
0000
0100
0000
0001
0000
1000
0000
0010
,
0000
0100
0000
0001
0000
1000
0000
0100
0000
0010
0000
1000
0000
0001
0000
0100
0000
0010
0000
0100
0000
1000
0000
1000
0000
0001
0000
0001
0000
0010
0000
0010
,
0000
0010
0000
0100
0000
0100
0000
0000
0000
0000
1101
0000
0000
0000
0000
0000
0000
0000
0000
1011
0000
0000
0000
0000
0000
0000
0000
0000
1101
0000
0000
0000
,
0000
1111
0000
0000
0000
0000
0000
0000
0000
0000
1110
0000
0000
0000
0000
0000
0000
0000
0000
1110
0000
0000
0000
0000
0000
0000
0000
0000
1110
0000
0000
0000
,
0000
0111
0000
0000
0000
0000
1110
0000
0000
0000
0000
1111
0000
0000
0000
0000
0000
0000
0000
0000
0111
0000
0000
0000
0000
0000
0000
0000
0000
1110
0000
0000
,
0000
0000
0000
0000
0000
0000
0111
0000
0000
0000
0000
0111
0000
0000
0000
0000
0000
0000
0000
0000
1110
0000
0000
0000
0000
0000
0000
0000
0000
0111
0000
0000
,
0000
0000
0000
0000
0000
0000
1110
0000
0000
0000
0000
1110
0000
0000
0000
0000
0111
0000
0000
0000
0000
1111
0000
0000
0000
0000
0000
0000
0000
0000
1101
0000
,
0000
0000
0000
0000
0000
0000
0000
1011
0000
0000
0000
0000
0000
0000
0000
0000
1101
0000
0000
0000
0000
1011
0000
0000
0000
0000
0000
0000
0000
0000
1011
0000
,
0000
0000
0000
0000
0000
0000
0000
1110
0000
0000
0000
0000
0000
0000
0000
0000
1110
0000
0000
0000
0000
1101
0000
0000
0000
0001
0000
0000
0000
0011
0000
0000
,
0000
0111
0000
0000
0000
0000
1111
0000
0000
0000
0000
0000
0000
0000
0000
1111
0000
0000
0000
0000
0000
0000
0000
0000
0000
0000
0000
0000
0000
0000
0000
0000
,
0000
0000
0000
0000
0000
0000
0000
0000
1111
0000
0000
0000
0000
0000
0000
0000
0000
1111
0000
0000
0000
0001
0000
0001
0000
0001
0000
0001
0000
0001
0000
0001
,
0000
0001
0000
0001
0000
0001
0000
0000
0000
0000
1111
0000
0000
0000
0000
0000
0000
0000
0000
1111
0000
0000
0000
0000
0000
0000
0000
0000
1111
0000
0000
0000
,
0000
0000
0000
0000
0000
1111
0000
0000
0000
0000
0000
0000
0000
0000
0000
1111
0000
0000
0000
0000
0000
0000
0000
0000
0000
0000
0000
0000
0000
0000
0000
0000
;
